X264 Dar



x264 automatically lowers this when using psy-rd and/or psy-trellis to compensate for it increasing the quality of luma, and subsequently decreasing the quality of chroma. Info: Trailer, Homepage « Family Guy S17E01 HDTV x264-W4F. filmul e bunicel,dar parca lipseste ceva. Genre : Reality-TV Five ex-Special Forces soldiers recreate the SAS’s secret selection process and put 30 men through it, in the ultimate test of their physical and – more importantly – psychological resilience. Release: SAS. But when a mission goes wrong, Jean is exposed to a dark and ancient power. From: Subject: =?utf-8?B. Many of the towns folk go to Annabelle for help, and Jessica's fiancée, Wayne Collins, turns to. June 13, 2018. Rosogolla 2018 [Bengali] 1080p WEB-DL x264 AAC - Hon3yHD: 10: 11: Jul. nz, filefactory, crack, serial, keygen, requirements or whatever-related comments here. 1 Castellano][www Una mujer se ve obligada a dar marcha atrás en un aeropuerto por culpa de su tutor. Contribute to mirror/x264 development by creating an account on GitHub. An explosion in a rice field in Colusa County, California kills farm manager Roberto Ayala. Subtitrari in limba romana pentru filmul Dark Crimes aparut in 2016 de genul crima, drama, suspans din distributie facand parte Kati Outinen, Jim Carrey, Marton Csokas. Mukherjee Dar Bou 2019 Bengali 1080p WEB-DL x264 AAC { TaRa }. 000000, bitrate: N/A Stream #0:0: Video: rawvideo (I420 / 0x30323449), yuv420p, 512x512 [SAR 1:1 DAR 1:1], 25 tbr, 25 tbn, 25 tbc x265 [info]: using cpu capabilities: MMX2 SSE SSE2Fast SSSE3 SSE4. It 2017 Sunny x264 free download torrent Download torrent In the summer of 1989, a group of people were subjected to those who had been transformed to resemble a group of men, wicked, and at the same time feared to change shape to destroy a farm prey on their children, and their small spring in a small town in Maine. 05 GB Video : x264 - CRF16 - 720x464 (16:9 DAR) Audio. To be sure I update to the lastest version of x264 and ffmpeg, it's work well with other videos, but specificaly with this one, it's still freezing. 4/10 Directed: Pawan Wadeyar Released Date: September 1. Download the Ek Haseena thi 2004. If you face any problem in Download … just COMMENT below or INBOX me ! Posted in Uncategorized. Roarke (Michael Peña) ospitare nel suo lussuosissimo e remoto resort, sito su una sperduta isola tropicale, chiunque voglia realizzare il suo sogno nel cassetto. 16 01:42:50. Description: A guide on how to use StaxRip to encode video, with an emphasis on the H. mkv fast and secure. In most circumstances, it should be automatically set for you. Game Of Thrones S01 Complete [Season 1] 2011 720p BluRay X264 AnoXmous >> DOWNLOAD game of thrones s02 complete season 2 720p bluray x264 anoxmous 99473d6f7e BT,,,bt,,. 0 KB) Mukherjee Dar Bou 2019 [Bengali] 1080p WEB-DL x264 AAC - Hon3yHD. Please check our funny video site Snotr. Download HD Movies , New Hindi movies, Hollywood, dual audio hindi dubbed, indian and all category movies you can download on moviemad with HD formats also on mobile. Home > Tools > Multilingual Resource Center. Okay, I tried the default MP4 render. Mukherjee Dar Bou (2019) Bengali Full Movie 720p HDRip 700MB x264 IMDB Ratings: Directed: Pritha Chakraborty Released Date: 8 March 2019 (India) Genres: Drama, Family Languages: Bengali Film Stars: Aparajita Adhya, Koneenica Banerjee, Biswanath Basu Movie Quality: 720p WEB-DL File Size: 700MB Download Link 360p Full Movies 350 Mb HD UptoMega Download Link *High Speed* DeshiUpload Download Link. This list is based from user reports and we have not verified or tested any region codes. FFmpeg Toolbox is aimed to bring FFmpeg features to Matlab. Outro grande aspecto positivo desse software é que ele não necessita de uma janela exclusiva ou uma interface própria para rodar. Un jour, suivant les conseils d'un vieil ami, Yasuhisa Yoshikawa, il décide de se remarier et organise une audition pour une série télévisée fictive afin de trouver sa nouvelle compagne parmi les candidates. Alongside Theora and Dirac, WebM now enters the open source HTML 5 ready codec battle. To get the most out of this post, I'd suggest reading these two earlier posts check the box that reads "Preview DAR". "Terminator Dark Fate" After Marvel grabs the attention of all media this weekend with its great ads, something that has been lost there, is one of the great news about the next installment of Terminator, Dark Fate. 1-URBiN4HD torrent or any other torrent from the Video Movies DVDR. -Natasha and her fiance, Sunny visit her ancestral property where she meets. Full Movies via. Mukherjee Dar Bou 2019 [Bengali] 1080p WEB-DL x264 AAC - Hon3yHD Seeds: 8, Peers: 3 1337x Movies , Size: 1. AKA: Terminator Dark Fate. (Race to the Edge S03) 1080 x264 Phun. True Crimes movie YIFY subtitles. De vídeo Formato de vídeo: MKV Video Bitrate: 1850 kbps Resolución (DAR): 1024 x 576 (AR: 1. mkv Intel QuickSync (QSV) Quick Sync Video uses media processing capabilities of an Intel GPU to decode and encode fast, enabling the processor to complete other tasks and improving system responsiveness. Mukherjee Dar Bou (2019) 1080p WEB-DL x264 AAC-BonsaiHD. ticket,summary,component,version,milestone,type,severity,owner,status,created,_changetime,_description,_reporter 4,DVDNav current time,Demuxers,master git,Features. Download Anjaan 2014 720p BluRay x264 Tamil AAC - Ozlem torrent or any other torrent from Asian category. Verbose output (debug infos can be displayed by selecting "Debug logging" interface under View. It reminded me of the time I’ve been using ISDN at 64kbit/s (my provider didn’t let me use CAPI channel aggregation for 128kbit/s), which was the first true flat rate in my country. Hon3y Video HD -Get Jaane Tu. Bancharamer Bagan Bari (2019) Bengali 720p HDRip x264 AAC [1GB] Full Bengali Movie. Not as a murder suspect, but as a clairvoyant. I will accept suggestion) 0. They originally have a resolution of 720x576, a Sample Aspect Ratio (SAR) of 16:15 and a Display Aspect Ratio (DAR) of 4:3. Years later they found her again and secret agents put a daring undercover sting into action. 38 the DAR is set to 2. Now X264 compression test is done against a CRF of 18 Now Auto on "Force Mux DAR" will calculate the exact (NON ITU) DAR of movie (for film with DAR between 2. This program is a. 500 Terry Francois Street. Mukherjee Dar Bou 2019 [Bengali] 1080p WEB-DL x264 AAC - Hon3yHD. Summary Carrie returns home to the US with Franny to work as an advocate for Muslim Americans. Download Piranha 3DD (2012) 1080p BrRip x264 - 1. StaxRip is a multiformat video encoding application. VideoLAN software is licensed under various open-source licenses: use and distribution are defined by each software license. Die erfolgreiche Schriftstellerin Jennifer Hills ist zurück an den Ort, an dem alles begann – um den Zorn. date___: 2019-04-04 runtime____: 1 h. Dar atunci cand fanteziile se transforma in cosmaruri, oaspetii, pentru a-si salva viata, trebuie sa dezlege misterul insulei. It stars Vijay Devarakonda and Rashmika Mandanna in the number one spot roles, while Subbaraju, Rahul Ramakrishna, Vennela Kishore, Naga Babu, and Mouryani show up in supporting roles. x264-JustWatch on Rapidgator , Uploaded , Uptobox , Go4up. Home > Tools > Multilingual Resource Center. 1 GB 8: Hon3yHD: Simmba 2018 Hindi 1080p BluRay x264 DTS-5. 9 GB 10: tpbj1: Zero 2018 Hindi 1080p BluRay x264 DTS-5. Pressing spacebar will advance the output a screen at a time, and pressing enter will advance the output one line at a time. X264 x264 is a free software library for encoding H. Cuando su hijo mayor, Gi Woo (Choi Woo Shik), empieza a dar clases particulares en casa de Park (Lee Sun Gyun), las dos familias, que tienen mucho en común pese a pertenecer a dos mundos totalmente distintos, comienzan una interrelación de resultados imprevisibles. ロボジー / Robo-G (2012) I am posting slow. 16 01:42:50. [한글자막] 안개 속의 불빛 (Cheraghi dar meh, A Light In The Fog, 2008) 파나바르코다. Learn how to play files encoded with this encoder. Now that this foreign power is. mp4 -sameq -an output. com/profile/17154049999756729890 [email protected] The Dark Knight Subtitles. This option allows you to simply encode the video as is without any drastic resizing. MKV Player is a simple video player that in principally made for MKV files. يه زيرنويس خوب براي يه فيلم خوب Me. Scaricare o Download Spider-Man: Far From Home Torrent ITA, Download Spider-Man: Far From Home Torrent ITA 2019 Spider-Man: Far From Home Torrent ITA. He discovers that he has the ability to communicate with the animals, and after that, Dar begins his quest for revenge in this Conan-like movie. Parameters are ordered the same as their appearance in x264 --fullhelp. This is due to a limitation in ffserver, only few parameters can be set from the configuration file and no codec private options. # Worker ready: Pipe 'VidCoderWorker. Najdete u nás i oblíbené online seriály jako Dva a půl chlapa, Jak jsem poznal vaši matku, Futurama, Teorie velkého třesku a mnoho dalšího. 1] By Mafiaking [Team EXD] By dingdongpogi. Have fun on your trip. VideoLAN, VLC, VLC media player and x264 are trademarks internationally registered by the VideoLAN non-profit organization. 0 KB) Hon3yHD. Written from scratch by Loren Merritt, Laurent Aimar, Eric Petit, Min Chen, David Johnson (pT), Justin Clay, Måns Rullgård, Radek Czyz, Alex Izvorski, Dan Peled, Alex Wright, Christian Heine, and Jason Garrett-Glaser. x264-SHORTBREHD His. H264-AMRAP / WEBRip. 03 GB: 2 years: 1: Scandal US S07E14 HDTV x264-FLEET [eztv] 241. 3rd Part: Click Here To Download Part 3. 23rd '19: 1. With StaxRip you can easily convert your DVD's and many more formats into MPEG-4 like XviD, x264/H264/AVC, x265/H265/HEVC, VP9. x264-ViRGO Encodes in the resolution 720p from retail (BluRay, HDDVD) sources, with one or more English audio tracks only. Latest horror Movies: Check out the list of all latest horror movies released in 2020 along with trailers and reviews. THIS MOVIE IS A RIOT! The young Remington is a living gay-dar and he bullies every bakla he sees. It can also convert between arbitrary sample rates and resize video on the fly with a high quality polyphase filter. 976 FPS Langauge: English Genre: Drama, Mystery, Thriller iMDB. Using an Intel i3 core CPU the maximum it could take was superfast. The result is a constant frame rate. Cuando su hijo mayor, Gi Woo (Choi Woo Shik), empieza a dar clases particulares en casa de Park (Lee Sun Gyun), las dos familias, que tienen mucho en común pese a pertenecer a dos mundos totalmente distintos, comienzan una interrelación de resultados imprevisibles. Encoder = x264 - core 158 r2984 3759fcb Audio Codec info = AAC | A_AAC-2 Channels = 2 Bitrate = Samplerate = 48. Also find details of theaters in which latest horror movies are playing along. CDA - multimedialna społeczność od 2003 roku. Kabhi Khushi Kabhie Gham (2001) 1080p BluRay x264 Chapters DTS - xDR Kabhi. Late last week this rumour became reality and WebM was born. Tutorial: Converting Video Files to x264 using MeGui Published by GaProgMan on 18th September 2013. Encoder = x264 - core 159 r2991 1771b55 Audio Codec info = AAC | A_AAC-2 Channels = 2 Bitrate = Samplerate = 48. Latin America. Video Production Stack Exchange is a question and answer site for engineers, producers, editors, and enthusiasts spanning the fields of video, and media creation. Versión en español. Auch in HD verfügbar - kostenlos angucken. Subtitrari in limba romana pentru filmul Dark Crimes aparut in 2016 de genul crima, drama, suspans din distributie facand parte Kati Outinen, Jim Carrey, Marton Csokas. com/profile/17154049999756729890 [email protected] x264 is an open source, free, h. 264 and audio encoder. I considered myself very much intermediate (at best) with using Megui and x264 but have recently joined a forum specialising in x264 and so I'm questioning a few things now – just wanted to get some feedback from members here as I know we have some very talented individuals that dwell. AKA: Terminator Dark Fate. H264-AMRAP / WEBRip. Prima călătorie a „navei viselor” s-a încheiat într-un coşmar care depăşeşte capacitatea de înţelegere, iar credinţa oam… Comentarii. دانلود زیرنویس فیلم Scary Stories to Tell in the Dark (زیرنویس فیلم داستان های ترسناک برای گفتن در تاریکی) فیلم سینمایی The Scary Stories to Tell in the Dark محصول سال 2019 کشور آمریکا که توسط آندره اوددال (André Øvredal) کارگردانی شده است. mkv 426 MB. Enjoy Darlin. Original ripeado para versiones "720p / 1080p BluRay X264-AMIABLE", 720p BluRay x264-iFT, 1080p Bluray x264-EVO, 720p / 1080p BluRay H264 AAC-RARBG y 720p / 1080p BluRay x264 AAC-[YTS MX] Gracias escenaftp =). Buy Cheapest RDP from www. 0 KB) Hon3yHD. Daruvu (2012) - [BDRip - x264 - Tamil Dubbed - AC3 - 450MB][LR] [Team TamilRockers] Encoder : Lone Ranger www. 1 click process with excellent SD and HD quality - subtitles supported. y la aplicaci on x264, est a ultima codi cando al formato de compresi on previa-mente citado. Pull requests 0. Using our site you can access all the websites your network admin and/or country don't want you to be looking at. Jo Dar Gaya Samjho Mar Gaya Telugu Movie Torrent Download. Hustlers 2019 GERMAN DL MD 720p BluRay x264-ANTiHELD {{032}} alt. XviD-AFG fps: 23. Darvinte Parinamam (English: Darwin's Evolution) is a 2016 Indian Malayalam-language action The latter's perspective, crudely shown, seems diluted to glorify the movie's apparent hero". More info: x264 "Macroblock Tree Ratecontrol" testing (committed) A tree of thought. Cholo Paltai (2011) 1CD DvDRip 700MB Cast: Prosenjit, Mouli Ganguly, Rajatava Dutta, Basudeb Mukherjee, Devdaan and Tathoi Production House: Shree Venkatesh Films Pvt l Bodyguard (2011) BluRay 1080p 5. x264 is a free software library for encoding H. This page explains the purpose and use of all x264 parameters. Search the world's information, including webpages, images, videos and more. Similar torrents. دانلود زیرنویس فارسی legacies فصل 2 season-2 s02 فصل دوم میراث فصل دوم Legacies Second Season. Home > Tools > Multilingual Resource Center. net - Daruvu (2012) - BDRip - x264 - Tamil Dubbed - AC3 - 450MBLR. Download file. 6 GB: 04/23/20: 6: 3 Scary Stories To Tell In The Dark 2019 1080p BluRay x265-RARBG: 1. The srrDB release lister plugin! We have created an amazing plugin for all of you movie fans out there! The plugin will give you a list of releases for a specific movie, tv-series or something else, when browsing imdb. 2 AVX Video: mpeg2video (Main), yuv420p(tv), 720x576 [SAR 64:45 DAR 16:9], max. The x264 CLI is a command line software. h264-xlf / 1080p,720p. City Of Ember 2008 720p BrRip X264 YIFY. Mukherjee Dar Bou (2019) Bengali 480p Original HDRip x265 AAC [350MB] Full Bengali. 78:1) (16:09) Framerate: 25. And everything seems normal in the. When I use the default setting the image becomes 4:3 please explain SAR/DAR/PAR - VideoHelp Forum. Roarke (Michael Peña) ospitare nel suo lussuosissimo e remoto resort, sito su una sperduta isola tropicale, chiunque voglia realizzare il suo sogno nel cassetto. Know about Film reviews, lead cast & crew, photos & video gallery on BookMyShow. Search the world's information, including webpages, images, videos and more. Il se rend alors au domicile de son frère, Zaid, chirurgien. com (le «Site Web») et les applications FILMube et comment nous utilisons ces informations. Terminator Dark Fate is an upcoming American Action film directed by Tim Miller and written by James Cameron, Charles H. After 12 weeks, things get even more. The Last Ship S01 Season 1 Complete HDTV 480p x264 AAC E-Subs [G. Verbose output (debug infos can be displayed by selecting "Debug logging" interface under View. x264 PRO is a very flexible H. Simply select the movie of your choice for free and without registration. H264-AMRAP / WEBRip. Sarkar (2019) Bengali Dubbed 720p SDTVRip x264 AAC [1. 9 GB 10: tpbj1: Zero 2018 Hindi 1080p BluRay x264 DTS-5. net provides unlimited and fast file cloud storage that enables you to securely share and access files online. Die erfolgreiche Schriftstellerin Jennifer Hills ist zurück an den Ort, an dem alles begann – um den Zorn. x264-JustWatch on Rapidgator , Uploaded , Uptobox , Go4up. Outro grande aspecto positivo desse software é que ele não necessita de uma janela exclusiva ou uma interface própria para rodar. Online video translation and transcription crowdsourced. Game of Thrones 6x05 (720p HDTV. David meets Pablo Escobar's enforcer in Colombia. Download Subtitle Download Subtitle (Zip) Report bad/wrong subtitle Report Form × Your Email. ZEBRAS GONE WILD!!! x264 - Dargoole cerca e cataloga i video presenti sui più famosi portali di video sharing del Web. Homeland S06E02 HDTV x264. Later, he witnesses an exorcism in Mexico and participates in a faux illegal border crossing. Pe Insula fanteziilor, enigmaticul Mr. x264-FUM[ettv] torrent or any other torrent from Video > TV shows Direct download via magnet link. Add a subtitled file work pretty well on all. Encoder = x264 - core 159 r2991 1771b55 Audio Codec info = AAC | A_AAC-2 Channels = 2 Bitrate = Samplerate = 48. Tanto Gi Taek (Song Kang Ho) como su familia están sin trabajo. x264 is used in several free video converters like Handbrake, Xvid4PSP, StaxRip, RipBot264, MEGUI, Xmedia Recode. يه زيرنويس خوب براي يه فيلم خوب Me. Versión en español Share This Page Print. 264/MPEG-4 AVC format, and is released under the terms of the GNU GPL. sub][PoRO petit]のぞき彼女 上書き性服・楓~剥がれ注ぐおじさん棒~[x264 720P AAC]. In most circumstances, it should be automatically set for you. se Jaane Tu Ya Jaane Na 2008 Hindi 720p BRRip x264 AC3 5. By default, the result of the Avidemux conversion is a MPEG4 video with the same resolution, but a 1:1 PAR and 5:4 DAR which is rendered by VLC at. x264-JustWatch on Rapidgator , Uploaded , Uptobox , Go4up. március 19-én éjféltől HD (720p) és full HD (1080p) formátumú videókat nem szolgál ki. Original ripeado para versiones "720p / 1080p BluRay X264-AMIABLE", 720p BluRay x264-iFT, 1080p Bluray x264-EVO, 720p / 1080p BluRay H264 AAC-RARBG y 720p / 1080p BluRay x264 AAC-[YTS MX] Gracias escenaftp =). Ya Jaane Na (2008) (VMR) Torrent Free and Anonymous. Vincent decide di dar seguito a quella che è ormai diventata un'ossessione lontano da occhi indiscreti. The Last Ship S01 Season 1 Complete HDTV 480p x264 AAC E-Subs [G. Back to Subtitle List. Blu-ray Converter converts blu-ray movies to MKV, AVI, DVD, XBox, PS3, iPad, iPhone formats. From: Subject: =?utf-8?B. 8 kHz coil for Omega Jarod_Amsterdam 7800 CW 0 200 0 false true DK7FC [Ham Radio below 9 kHz] Jarod_Amsterdam 8970 CW 0 200 0 false true Deleon Jarod_Amsterdam. Season 3, Ep 12. 2020 | Web-DL | 486p | x264 | AAC | BTRG [Sadece kayıtlı kullanıcılar linkleri görebilirler. Send Report Close. Pe Insula fanteziilor, enigmaticul Mr. NAAM-E-AHMAD - RAMZAN SPECIAL NAAT - Danish F Dar - Dawar Farooq - Best Naat - Naat - Ramadan Naat -. Brotherhood. x264 Git mirror. Download Parasitos. Parameters are ordered the same as their appearance in x264 --fullhelp. 1st Part: Click Here To Download Part 1. Taarzan: The Wonder Car is a 2004 Indian fantasy action thriller film directed by Abbas Burmawalla and Mustan Burmawalla. To workaround the issue at the moment it is required to use the override_ffserver on the ffmpeg side and set the option on the ffmpeg commandline. Fantasy Island. The best public PreDB there is, with millions of releases at your fingertips. The process took around 20 hours [!] in my machine, and the result played at 5:4 aspect ratio, a DAR confirmed by MediaInfo. 0 KHz - 6 channels | 1h 53mn. 18+ Sauda Bhabhi 2020 Feneo Hindi S01E03 Web Series Download. Like Zip files, these files need to be extracted. movies pk 720p blu-ray x264. Piranha 3DD (2012) 1080p BrRip x264 - 1. David meets Pablo Escobar's enforcer in Colombia. Home > Tools > Multilingual Resource Center. Tanto Gi Taek (Song Kang Ho) como su familia están sin trabajo. Prima călătorie a „navei viselor" s-a încheiat într-un coşmar care depăşeşte capacitatea de înţelegere, iar credinţa oam… Comentarii. Late last week this rumour became reality and WebM was born. Mukherjee Dar Bou (2019) Bengali Full Movie 720p UNCUT ORG BluRay 1. Tambi en se dar a informaci on relacionada con la plataforma hard-ware sobre la que se ha desarrollado el proyecto, as como el conjunto de apli-caciones de desarrollo utilizadas, incluyendo el model de programaci on OmpSs y sus componentes. x264 is a free software library and application for encoding video streams into the H. #N#This disambiguation page lists articles associated with the same title. What’s really being tested is psychological resilience and character as candidates undergo sleep deprivation, interrogation and a series of. I have selected following settings for for x264vfw for Camstudio. Lorai (2015) Bengali Movie – 499 MB – HD Cam Rip [x264. The Dark Knight Rises Subtitles. Using x264-devel: To post a message to all the list members, send email to [email protected] Fifty Shades Released The last part of the „Fifty Shades" franchise follows the present life of married Christians and Ana. Hustlers 2019 GERMAN DL MD 720p BluRay x264-ANTiHELD {{032}} alt. A(z) "Reign. 976 FPS Langauge: English Genre: Drama, Mystery, Thriller iMDB. Info: Trailer, Homepage « Family Guy S17E01 HDTV x264-W4F. It is one of the best time movies to turn out lately. Cholo Paltai (2011) 1CD DvDRip 700MB Cast: Prosenjit, Mouli Ganguly, Rajatava Dutta, Basudeb Mukherjee, Devdaan and Tathoi Production House: Shree Venkatesh Films Pvt l Bodyguard (2011) BluRay 1080p 5. rar file to the desktop. Die größten Herausforderungen stellen beim Video-Encoding schnelle Bewegungen dar. 00 MB: OK: Ter. Valerian and the City of a Thousand Planets 2017 Dual Audio 720p BluRay ORG [Hindi-English] Valerian and the C Jurassic World Fallen Kingdom 2018 Hindi HDRip x264 ac3 Download Captain marvel full movie in hd dual audion [Eng-Hindi] 720p. Violet Evergarden Gaiden (2020) [BluRay 720p X264 MKV][AC3 5. Enjoy Darlin. qupai / x264. Uploaded 08-10 2014, Size 542. This page offers information in several languages on a variety of topics such as citizenship, Green Cards, employee verification, biometrics, how to report fraud and avoid immigration scams, and. Language: Hindi Translate Subtitle into another Language. But when I try to encode it with x264 I get interlacing artifacts even though the original camera is progressive! dvvideo, yuv420p, 720x576 [PAR 16:15 DAR 4:3. Najlepszy (2017) - Głównym bohaterem filmu jest Polak, który zachwycił świat, a który u nas, do dziś, pozostaje osobą praktycznie nieznaną. Many of the towns folk go to Annabelle for help, and Jessica's fiancée, Wayne Collins, turns to. To access this help, run x264 with --help, --longhelp or --fullhelp. In most circumstances, it should be automatically set for you. 6 GB: 04/23/20: 6: 3 Scary Stories To Tell In The Dark 2019 1080p BluRay x265-RARBG: 1. Season 3, Ep 12. June 13, 2018. Humko Deewana Kar Gaye (2006) 1080p Blu-ray DTS Subs x264 TmG. 71570b6a-d0ab-4329-96a3-aecdde89f5b1' is open. H264-AMRAP / WEBRip. x264-XLF » video tv 2 months 190 MB 2 1 Revolution Saints - 2020 - Rise (Japan) [CD-FLAC] » audio music lossless 2 months 494 MB 2 1 MP3-daily-2020-April-16-Trance » audio music mp3 7 days 3728 MB 1 2 The. 1-URBiN4HD https: Gi Woo (Choi Woo-sik), empieza a dar clases particulares en casa de Park (Lee Seon-gyun. x264 Settings Help x264 comes with some inbuilt documentation. Scandal US S07E15 HDTV x264-SVA [eztv] 229. City Of Ember 2008 720p BrRip X264 YIFY. 원령 공주 BD 1920x1036 x264 DTS PGS) [DF91DE71]입니다. Neon Alley to Premiere Naruto Shippūden: Blood Prison Dub on Sunday (Jan 25, 2014) Madman's "12 Announcements of Christmas" Day Eleven - Naruto Shippūden Movie 5: Blood Prison (Dec 22, 2013). Verbose output (debug infos can be displayed by selecting "Debug logging" interface under View. false true Unknown Jarod_Amsterdam 2430 CW 0 200 0 false true IDT MK Clock Jarod_Amsterdam 3072 CW 0 200 0 false true Unknown Jarod_Amsterdam 4860 CW 0 200 0 false true Unknown Jarod_Amsterdam 5500 CW 0 200 0 false true 10x12 SEF 7. Sample Sample. My process for mpeg and avi files now is to encode or transcode to mpeg2 only with mpeg1 layer 2 audio (not mp3) all for keeping quality. Stack Overflow for Teams is a private, secure spot for you and your coworkers to find and share information. Taarzan: The Wonder Car is a 2004 Indian fantasy action thriller film directed by Abbas Burmawalla and Mustan Burmawalla. Lalau Velasco travels across the country performing routines about how tough his life is on the road. God Loves You Recommended for you. The program, however, has very few options once you are playing the movie in question. Mukherjee Dar Bou (2019) Bengali 480p Original HDRip x265 AAC [350MB] Full Bengali. 76 GB: 2: 0: Dar Williams - The Green World (2000) 3 months ago - in Music31. 30th '19: 6. Violet Evergarden Gaiden (2020) [BluRay 720p X264 MKV][AC3 5. Scandal US S07E15 HDTV x264-SVA [eztv] 229. 10 GB , Uploaded: 7/23/2019. mkv - 675 bytes - Torrent TaRa Digital Team. x264 is a free software library and application for encoding video streams into the H. ロボジー / Robo-G (2012) I am posting slow. x264-LTN / Lektor PL ŹRÓDŁO V/A: REMUX / NN Tomasz Knapik, POL NN - Jan Suzin Format : Matroska at 2. Online video translation and transcription crowdsourced. x264-JustWatch on Rapidgator , Uploaded , Uptobox , Go4up. NewStudio. Returns & Exchanges. dacă aveţi vreo nelămurire nu ezitaţi să mă…. Monamour (2006) [1080p] x264 - Jalucian. 9608 kb/s, 25 fps. XviD-DrSi / BluRay. x264-DaR OFDb Beschreibung: Sasha is obsessed with death, necrophilia and decaying human. 6 Mb Deinterlace___: Manual 2:2 Pulldown Runtime_____: 3:27 Resolution____: 528×368 (DAR 1. Game Of Thrones S01 Complete [Season 1] 2011 720p BluRay X264 AnoXmous >> DOWNLOAD game of thrones s02 complete season 2 720p bluray x264 anoxmous 99473d6f7e BT,,,bt,,. Tutorial: Converting Video Files to x264 using MeGui Published by GaProgMan on 18th September 2013. Late last week this rumour became reality and WebM was born. Roarke transforma in realitate cele mai ascunse visuri ale oaspetilor sai. Season 1 11 episodes. x264 PRO is a very flexible H. Directed by Justin P. masturbeat's theatre djmasturbeat's blog for DVD, BD, anime, music and more they will be resized by player since it is anamorphic; I don't have vlc installed on my fresh install yet for DAR shots). It is the sequel to Thor (2011) and the eighth film in the Marvel Cinematic Universe (MCU). 264 conversion as an example x264 Options Explained Description: This article explains the encoding options found in x264 (as seen through the eyes of StaxRip), with hints and tips about which settings to use. 23rd '19: 1. June 13, 2018. Boyd, Adam Budron, Ellie Church, Siarra T. Valerian and the City of a Thousand Planets 2017 Dual Audio 720p BluRay ORG [Hindi-English] Valerian and the C Jurassic World Fallen Kingdom 2018 Hindi HDRip x264 ac3 Download Captain marvel full movie in hd dual audion [Eng-Hindi] 720p. encoder h264 h264_mpeg_4_avc mp4 multimedia video videolan x264. W serwisie znajdziesz: gry, materiały video, śmieszne grafiki oraz dział download. 264/MPEG-4 AVC video streams. This is an exciting new option and should be watched closely. x264-JustWatch on Rapidgator , Uploaded , Uptobox , Go4up. Alien Outbreak 2020 Movie 720p WEB-DL 800MB ESubs. Posted by banglatorrent. 976 FPS Langauge: English Genre: Drama, Mystery, Thriller iMDB URL Summary The Man In The Basement - Carrie and Reda fight for their client while Quinn fights against his new life. Dar, în acelaşi timp, asociindu-l pe Dexter cu un cod moral (imprimat prin educaţie parentală), i se conferă acestuia alura unui justiţiar fără milă faţă de "monştrii cu faţă umană", lucru care îi satisface din plin pe cinefilii însetaţi după dreptate. Posto (2017) HD Rip x264 AAC3(2Ch) [1GB] Full Bengali Movie. org was shut down. StaxRip complete changelog / release notes / version. x264-ViRGO Encodes in the resolution 720p from retail (BluRay, HDDVD) sources, with one or more English audio tracks only. mkv Intel QuickSync (QSV) Quick Sync Video uses media processing capabilities of an Intel GPU to decode and encode fast, enabling the processor to complete other tasks and improving system responsiveness. Acesse e veja mais informações, além de fazer o download e instalar o x264 Video Codec. [한글자막] 안개 속의 불빛 (Cheraghi dar meh, A Light In The Fog, 2008) 파나바르코다. Download Piranha 3DD (2012) UNRATED BRRIP Dual Audio x264 NaNO or any other file from Movies category. XviD-DrSi / BluRay. Anjaan 2014 Hindi Dubbed tamil Movie in HD Free Download 720pu Bhai & Chandru head a thriving gang in Mumbai taking on & dismantling. Jaane Tu Ya Jaane Na 2008 Hindi 720p BRRip x264 AC3 5. Subscribing to x264-devel. Jo Dar Gaya Samjho Mar Gaya 3gp 2012 Download. Scary Stories To Tell in the Dark 2019 BRRip 1080p HEVC HDR Eng Spa DD 5. Darvinte Parinamam (English: Darwin's Evolution) is a 2016 Indian Malayalam-language action The latter's perspective, crudely shown, seems diluted to glorify the movie's apparent hero". 250 GiB | 1024x436 | AVC @ 1 339 Kbps | English | AAC LC @ 48. XviD-AFG fps: 23. Project Activity. Sorry =P Robo-G-2012-DVDRip_x264_AC3-EiGA Filesize : 2. 0 KB) Mukherjee Dar Bou 2019 [Bengali] 1080p WEB-DL x264 AAC - Hon3yHD. 15 GB of storage, less spam, and mobile access. 976 FPS Langauge: English Genre: Drama, Mystery, Thriller iMDB URL Summary The Man In The Basement - Carrie and Reda fight for their client while Quinn fights against his new life. Synopsis: Selection for the SAS is one of the world’s toughest job interviews and physical fitness is only the starting point. Posto (2017) x264 AAC HDRip. Terminator Dark Fate is an upcoming American Action film directed by Tim Miller and written by James Cameron, Charles H. x264-CHD / 1080p BluRay x264-SPARKS / 720p. Then, she became the story. Die erfolgreiche Schriftstellerin Jennifer Hills ist zurück an den Ort, an dem alles begann – um den Zorn. Language: french Rip: WebRip Release: x264-ION10 Are You Afraid of the Dark - 1×01 - Episode 1. 9 Andover (2017) (View More Info). This program is a simple GUI for the x264 codec with support for: job queue, 10-bit depth, profiles, zones and audio. mkv -an -c:v libx264 -profile:v high -preset:v veryslow -crf 18 -x264opts ref=4:bframes=5 output. Torlock is a fast BitTorrent search engine that only lists verified torrents. Hon3y 16 torrent download locations thepiratebay. Versión en español. By default, the result of the Avidemux conversion is a MPEG4 video with the same resolution, but a 1:1 PAR and 5:4 DAR which is rendered by VLC at. Summary Carrie returns home to the US with Franny to work as an advocate for Muslim Americans. x264 PRO and x264 PRO B D are in the Format drop-down box next to their respective Adobe default plug-ins that they replace. marelica991 member. But when I try to encode it with x264 I get interlacing artifacts even though the original camera is progressive! dvvideo, yuv420p, 720x576 [PAR 16:15 DAR 4:3. Fascinating facts about Hollywood bombshell Margot Robbie (23 Photos) Feb 19, 2020 02/19/20. Season 3, Ep 12. Vincent decide di dar seguito a quella che è ormai diventata un'ossessione lontano da occhi indiscreti. Pe Insula fanteziilor, enigmaticul Mr. دانلود زيرنويس Legacies 02×16 Facing Dar با لينک مستقيم از سابدان دانلود زيرنويس فارسی Legacies Second Season زیرنویس سریال میراث فصل دوم. I Spit on Your Grave: Deja Vu online anschauen. Starring: Sid Haig, Joe Estevez, Robert Z'Dar, Fiona Domenica, Brenda Whitehead, Jesse C. Stack Overflow for Teams is a private, secure spot for you and your coworkers to find and share information. Actions Projects 0. 264 format using a DVD to H. Fantasy Island. This program is a. Download Torrent Files. Kedves felhasználók! Az NMHH koronavírussal kapcsolatban kiadott közleményével összhangban a Videa. 2020-01-26 23:39:50 (73 Days) [email protected] 4. The default values for these settings cause 2 to be subtracted from the chroma-qp-offset. Direct download via magnet link. cz sledujte nebo stahujte bez kreditu a omezení. Feel free to post your SAS Who Dares Wins S05E05 HDTV x264-UK torrent, subtitles, samples, free download, quality, NFO, direct link, free link, uploaded. دانلود زیرنویس فارسی legacies فصل 2 season-2 s02 فصل دوم میراث فصل دوم Legacies Second Season. iStreams - Stream Anytime. FFmpeg has added a realtime bright flash removal filter to libavfilter. I'm sharing these settings so that if anyone can help me better it then please. Boyd, Adam Budron, Ellie Church, Siarra T. Release: SAS. Hi, I've had some luck with various Megui/x264 questions in these here parts so let try our luck again. In my case, my input is 16:9. [Ohys-Raws] 치하야후루 3 - 24 END (NTV 1280x720 x264 AAC). org was shut down. y la aplicaci on x264, est a ultima codi cando al formato de compresi on previa-mente citado. De vídeo Formato de vídeo: MKV Video Bitrate: 1850 kbps Resolución (DAR): 1024 x 576 (AR: 1. Télécharger He Who Dares: Downing Street Siege FRENCH DVDRIP x264 2015 sur Cpasbien / Cestpasbien, He. torrent mini pc hdmi 1080p cable for xbox love actually watch online 720p or 1080p chhello divas 2015 hdrip 720p gujarati. GitHub is home to over 40. 264/MPEG-4 AVC video streams. account registration and an effective movie search. Home > Tools > Multilingual Resource Center. 8 kHz coil for Omega Jarod_Amsterdam 7800 CW 0 200 0 false true DK7FC [Ham Radio below 9 kHz] Jarod_Amsterdam 8970 CW 0 200 0 false true Deleon Jarod_Amsterdam. txt - 6686 bytes - Torrent TaRa Digital Team PC Info. x264-EVOLVE / 720p. From: Subject: =?utf-8?B. Humko Deewana Kar Gaye (2006) 1080p Blu-ray DTS Subs x264 TmG. 10 GB , Uploaded: 7/23/2019. y la aplicaci on x264, est a ultima codi cando al formato de compresi on previa-mente citado. I have selected following settings for for x264vfw for Camstudio. RAR files can be split into multi-volume archives when dealing with large file sets. x264-ION10 fps: N/A. Vincent decide di dar seguito a quella che è ormai diventata un'ossessione lontano da occhi indiscreti. It was discharged on 15 August 2018 in India and on 14 August 2018 in the US. The result is a constant frame rate. 76 GB: 2: 0: Dar Williams - The Green World (2000) 3 months ago - in Music31. This is due to a limitation in ffserver, only few parameters can be set from the configuration file and no codec private options. The best public PreDB there is, with millions of releases at your fingertips. While FFmpeg supports a vast number of multimedia formats and codecs, FFmpeg Toolbox brings a selected few (MP3, AAC, mpeg4, x264, animated GIF) closer to the user with its output option parameters. Versión en español. To access this help, run x264 with --help, --longhelp or --fullhelp. 2nd Part: Click Here To Download Part 2. Download Piranha 3DD (2012) 1080p BrRip x264 - 1. Subtitle Info Updated 4 years ago Framerate Files 1 File Size 30. It can also convert between arbitrary sample rates and resize video on the fly with a high quality polyphase filter. Celebrity SAS Who Dares Wins For Stand Up To Cancer S02E03 HDTV x264-LiNKLElinks hosted on Uploaded, Rapidgator, Nitroflare, Mega, Openload, Free, Direct Stream is also available Via putlocker or torrents. Jean Grey is one of the most beloved X-Men. {"code":200,"message":"ok","data":{"html":". Protectors of peace. THIS MOVIE IS A RIOT! The young Remington is a living gay-dar and he bullies every bakla he sees. FFmpeg Toolbox is aimed to bring FFmpeg features to Matlab. Bitrate calculator (1000 is a nice value) Auto. Posto (2017) x264 AAC HDRip. account registration and an effective movie search. Access and see more information, as well as download and install x264 Video Codec Você poderá dar. The film stars Ajay Devgn, Vatsal Sheth and Ayesha Takia in the lead roles, while Farida Jalal, Shakti Kapoor, Amrish Puri, Pankaj Dheer, Sadashiv Amrapurkar, Gulshan Grover and Mukesh Tiwari play supporting roles. Summary Carrie returns home to the US with Franny to work as an advocate for Muslim Americans. NewStudio MKV-urile sunt dual audio (lb. Deep down, we all know that Hugh Jackman IS Wolverine (Video) Feb 17, 2020 02/17/20. Dar, în acelaşi timp, asociindu-l pe Dexter cu un cod moral (imprimat prin educaţie parentală), i se conferă acestuia alura unui justiţiar fără milă faţă de "monştrii cu faţă umană", lucru care îi satisface din plin pe cinefilii însetaţi după dreptate. Dar ki m; - 1, grzesiek11, shocked shy sleepy verified. The most convenient translation environment ever created. Odgovara i za 720p. Language: Hindi Translate Subtitle into another Language. H264-AMRAP / WEBRip. Saul and Dar suspect Keane has a secret. mp4, which has the highest resolution among all the input video streams. "His Dark Materials" Lyra's Jordan (2019) [S01E01] His. HUN-nIk Watch online Download Subtitles Searcher. 22 GiB Language: English | Genre: Drama, Horror, Mystery | Subtitles: French imdb iNFO When Jessica King goes missing, all eyes turn to Annabelle Wilson. com/profile/17154049999756729890 [email protected] To fascynująca, pełna morderczego. Uploaded 08-10 2014, Size 542. x264はsarというオプションでアスペクト比を指定します。 横:縦の形です。正しく設定しないと映像が横長になったり縦長になったりしてしまうので大事なオプションです。 しかし注意しなければいけないのはsarで指定する値≠アスペクト比ということ。. 18 GB: 2 years-Scandal US S07E14 iNTERNAL 720p WEB x264-BAMBOOZLE [eztv] 1. Encoder = x264 - core 158 r2984 3759fcb Audio Codec info = AAC | A_AAC-2 Channels = 2 Bitrate = Samplerate = 48. x264 is a free software library and application for encoding video streams into the H. Dar peste patru zile şi jumătate, lumea s-a schimbat. Hi, I've had some luck with various Megui/x264 questions in these here parts so let try our luck again. This section does not include animated or TV/documentary films, it does however include black & white movies. Mukherjee Dar Bou 2019 Bengali 1080p WEB-DL x264 AAC { TaRa }. Calificación: 5. Bei gleicher Bitrate bildet X264 hier weniger Artefakte als NVENC und Quick Sync. 22 GiB Language: English | Genre: Drama, Horror, Mystery | Subtitles: French imdb iNFO When Jessica King goes missing, all eyes turn to Annabelle Wilson. 03 GB: 2 years: 1: Scandal US S07E14 HDTV x264-FLEET [eztv] 241. x264-PLUTONiUM. Jo Dar Gaya Samjho Mar Gaya 3gp 2012 Download. Cholo Paltai (2011) 1CD DvDRip 700MB Cast: Prosenjit, Mouli Ganguly, Rajatava Dutta, Basudeb Mukherjee, Devdaan and Tathoi Production House: Shree Venkatesh Films Pvt l Bodyguard (2011) BluRay 1080p 5. Download Piranha 3DD (2012) UNRATED BRRIP Dual Audio x264 NaNO or any other file from Movies category. Spellchecked, edited. Then, she became the story. RAR files can be split into multi-volume archives when dealing with large file sets. x264-ViRGO Encodes in the resolution 720p from retail (BluRay, HDDVD) sources, with one or more English audio tracks only. Video information like frame width and frame height is present there. x264-XLF » video tv 2 months 190 MB 2 1 Revolution Saints - 2020 - Rise (Japan) [CD-FLAC] » audio music lossless 2 months 494 MB 2 1 MP3-daily-2020-April-16-Trance » audio music mp3 7 days 3728 MB 1 2 The. Jean Grey begins to develop incredible powers that corrupt and turn her into a Dark Phoenix. The process took around 20 hours [!] in my machine, and the result played at 5:4 aspect ratio, a DAR confirmed by MediaInfo. From: Subject: =?utf-8?B. net provides unlimited and fast file cloud storage that enables you to securely share and access files online. txt - 6686 bytes - Torrent TaRa Digital Team PC Info. This is "02 Nabatati Johar e Kastoori Jawahir Dar Course x264" by Hakeem Azhar Malik on Vimeo, the home for high quality videos and the people who love them. marelica991 member. Als der [Horror] Funny Man UNCUT German 1994 DL AC3 BluRay 1080p x264-DaR - 1080p / 1080i. Mukherjee Dar Bou 2019 [Bengali] 1080p WEB-DL x264 AAC - Hon3yHD Format : MPEG-4 Format profile : Base Media / Version 2. Recent Posts. Apr 25, 2014 - free download: Banshee Season 2 Episode 1 to 10 HDTV x264. Tutorial: Converting Video Files to x264 using MeGui Published by GaProgMan on 18th September 2013. 3 GB Indiana Jones and The Kingdom of The Crystal Skull (2008) BRrip 720p x264 Dual Audio [Eng-Hindi] XdesiArsenal [DaR]/Indiana Jones and The Kingdom of T 1. English Subtitle: Well Classification: NA General Release Date: 08 February 2018. Dar atunci cand fanteziile se transforma in cosmaruri, oaspetii, pentru a-si salva viata, trebuie sa dezlege misterul insulei. It is the sequel to Thor (2011) and the eighth film in the Marvel Cinematic Universe (MCU). This is desirable so that you do not have to unnecessarily resize your video. Dark Tourist (Trailer) Release year: 2018. iStreams - Stream Anytime. 0 Cds: 1 Frame Rate: 23. 78:1) (16:09) Framerate: 25. Valerian and the City of a Thousand Planets 2017 Dual Audio 720p BluRay ORG [Hindi-English] Valerian and the C Jurassic World Fallen Kingdom 2018 Hindi HDRip x264 ac3 Download Captain marvel full movie in hd dual audion [Eng-Hindi] 720p. Season 1 11 episodes. It reminded me of the time I’ve been using ISDN at 64kbit/s (my provider didn’t let me use CAPI channel aggregation for 128kbit/s), which was the first true flat rate in my country. x264-JustWatch on Rapidgator , Uploaded , Uptobox , Go4up. ロボジー / Robo-G (2012) I am posting slow. Featured Posts. I need to convert a bunch of video files using ffmpeg. AAC-RARBG fps: 23. Donnie Darko (2001) m576p BluRay AAC x264-DTA Matroska | 1. Language: french Rip: WebRip Release: x264-ION10 Are You Afraid of the Dark - 1×01 - Episode 1. Young Blade Runner K's discovery of a long-buried secret leads him to track down former Blade Runner Rick Deckard, who's been missing for thirty years. Contribute to vdcrim/AvsP-macros development by creating an account on GitHub. June 14, 2018 UNRATED BRRIP 320p mHD Dual. x264-HAGGiS His. x264 [info]: using cpu capabilities: MMX2 SSE2Fast SSSE3 SSE4. Author: Dar. Like Zip files, these files need to be extracted. This page offers information in several languages on a variety of topics such as citizenship, Green Cards, employee verification, biometrics, how to report fraud and avoid immigration scams, and. In my case, my input is 16:9. A murder investigation of a slain business man turns to clues found in an author's book about an eerily similar crime. If you face any problem in Download … just COMMENT below or INBOX me ! Posted in Uncategorized. 264/MPEG-4 AVC video streams. Tags: Dar Salim, Pilou Asbæk, Søren Malling, Tobias Lindholm, Tuva Novotny You must be logged in to post a comment. By default, the result of the Avidemux conversion is a MPEG4 video with the same resolution, but a 1:1 PAR and 5:4 DAR which is rendered by VLC at. De vídeo Formato de vídeo: MKV Video Bitrate: 1850 kbps Resolución (DAR): 1024 x 576 (AR: 1. Scandal US S07E15 HDTV x264-SVA [eztv] 229. In addition to the relationship with her husband, neurosurgeon Derek Shepherd (Patrick Dempsey) and his friend ChristusYang (Marcus d) the relationship with colleagues and other doctors. FFmpeg and its photosensitivity filter are not making any medical claims. Set within a year after the events of Batman Begins, Batman, Lieutenant James Gordon, and new district attorney Harvey Dent successfully begin to round up the criminals that plague Gotham City until a mysterious and sadistic criminal mastermind known only as the Joker appears in Gotham. x264-EVOLVE / 720p. You can only make it "play" "stop" go back and forth, take screenshots and little else. La Candidata Perfecta (2020) [BluRay 720p X264 MKV][AC3 5. Despite his tarnished reputation after the events of The Dark Knight, in which he took the rap for Dent's crimes, Batman feels compelled to intervene to assist the city and its police force which is struggling to cope with Bane's plans to destroy the city. San Francisco, CA 94158. 2nd Part: Click Here To Download Part 2. 1 e-subs-mbrhdrg hollywood movies download bluray hdrip 720p 480p movie from 9xmovies. 05 GB Video : x264 - CRF16 - 720x464 (16:9 DAR) Audio. x264-AVS) 720p HDTV. Preview DAR. ba baznegarie dar 300 jomle va vazhe. I'm sharing these settings so that if anyone can help me better it then please. DTS-HDChina; By yusri. 줄거리램프 하나, 세면대 하나, 침대 하나…작은 방에 갇힌 24살 엄마와 5살 아들7년 전, 한 남자에게 납치돼 작은 방에 갇히게 된 열일곱 살 소녀 ‘조이’세상과 단절된 채 지옥 같은 나날을 보내던 중, 아들 ‘잭’을 낳고 엄마가 된다감옥 같은 작은 방에서 서로를 의지하며 살아가던 엄마와 아들. Please check our funny video site Snotr. Hustlers 2019 GERMAN DL MD 720p BluRay x264-ANTiHELD {{032}} alt. Description: A guide on how to use StaxRip to encode video, with an emphasis on the H. Protectors of peace. hu szerkesztősége úgy döntött, hogy az internetes hálózat általános leterheltségének csökkentése érdekében 2020. S05 dvdrip x264-demand modern family s05e20. The plugin works in most browsers including Chrome, Firefox, Opera and Safari. Latest horror Movies: Check out the list of all latest horror movies released in 2020 along with trailers and reviews. Using x264-devel: To post a message to all the list members, send email to [email protected] Cholo Paltai (2011) 1CD DvDRip 700MB Cast: Prosenjit, Mouli Ganguly, Rajatava Dutta, Basudeb Mukherjee, Devdaan and Tathoi Production House: Shree Venkatesh Films Pvt l Bodyguard (2011) BluRay 1080p 5. 000000, bitrate: N/A Stream #0:0: Video: rawvideo (I420 / 0x30323449), yuv420p, 512x512 [SAR 1:1 DAR 1:1], 25 tbr, 25 tbn, 25 tbc x265 [info]: using cpu capabilities: MMX2 SSE SSE2Fast SSSE3 SSE4. 100 Input #0, lavfi, from 'mptestsrc': Duration: N/A, start: 0. Christopher Nolan. com Blogger 19 1 25 tag:blogger. Blu-ray Converter converts blu-ray movies to MKV, AVI, DVD, XBox, PS3, iPad, iPhone formats. 0: Video: h264 (High), yuv420p, 720x404, PAR 1:1 DAR 180:101, 59. 9 Andover (2017) (View More Info). 9 GB 10: tpbj1: Zero 2018 Hindi 1080p BluRay x264 DTS-5. His father, Ramon, a veteran actor who poorly manages his son's fleeting career, constantly tries to pull off little cons and shady side jobs. torrent mini pc hdmi 1080p cable for xbox love actually watch online 720p or 1080p chhello divas 2015 hdrip 720p gujarati. Design by Made By Argon. It is released under the terms of the GNU General Public License. See also x264 Stats Output, x264 Stats File and x264 Encoding Suggestions. Posted by banglatorrent. Zones: x264 zones info can be automatically added as a parameter by including a :. 1-URBiN4HD torrent or any other torrent from the Video Movies DVDR. Letterkenny. 1 - Team SR » video movie hd 5 years 2019 MB 0 1 Alaipayuthey [2CD] Xvid Esubs WwW. COM] Descargas Gratis en Descargas2020. Mukherjee Dar Bou 2019 [Bengali] 1080p WEB-DL x264 AAC - Hon3yHD Seeds: 8, Peers: 3 1337x Movies , Size: 1. I Spit on Your Grave Deja Vu UNRATED German 2019 DL AC3. x264 advanced options - As a beginner, how do I make my encodes 'better' with advanced options? (I'm just looking for an excuse to get r/x264 off the ground) I've been encoding self-ripped dvd and BR files for about a few weeks now, following PTP Handjob's Handbrake tutorial. English Subtitle: Well Classification: NA General Release Date: 08 February 2018. This program is a. Featured Posts. This list is based from user reports and we have not verified or tested any region codes. Mukherjee Dar Bou (2019) Bengali 480p Original HDRip x265 AAC [350MB] Full Bengali. دانلود زیرنویس فارسی legacies فصل 2 season-2 s02 فصل دوم میراث فصل دوم Legacies Second Season. FFFFFFFFFFFFFFFF. 15 GB of storage, less spam, and mobile access. Donnie Darko (2001) m576p BluRay AAC x264-DTA Matroska | 1. Using an Intel i3 core CPU the maximum it could take was superfast. x264-XLF » video tv 2 months 190 MB 2 1 Revolution Saints - 2020 - Rise (Japan) [CD-FLAC] » audio music lossless 2 months 494 MB 2 1 MP3-daily-2020-April-16-Trance » audio music mp3 7 days 3728 MB 1 2 The. Watch Terminator: Dark Fate (2019) [MP4] Google. 6 MB: Celebrity. sub][PoRO petit]のぞき彼女 上書き性服・楓~剥がれ注ぐおじさん棒~[x264 720P AAC]. SEBUAH-DONGENG. [Ohys-Raws] 치하야후루 3 - 24 END (NTV 1280x720 x264 AAC). Gmail is email that's intuitive, efficient, and useful. Language: french Rip: WebRip Release: x264-ION10 Are You Afraid of the Dark - 1×01 - Episode 1. Mukherjee Dar Bou 2019 [Bengali] 1080p WEB-DL x264 AAC - Hon3yHD. Prima călătorie a „navei viselor" s-a încheiat într-un coşmar care depăşeşte capacitatea de înţelegere, iar credinţa oam… Comentarii. Odgovara i za 720p. Dar atunci cand fanteziile se transforma in cosmaruri, oaspetii, pentru a-si salva viata, trebuie sa dezlege misterul insulei. org is no more! On April 4th, 2017 Mininova. Release Name/Film Title Download Subs ; His. Download Dark. Scary Stories To Tell in the Dark 2019 BRRip 1080p HEVC HDR Eng Spa DD 5. Deep down, we all know that Hugh Jackman IS Wolverine (Video) Feb 17, 2020 02/17/20. x264-DRONES. Cholo Paltai (2011) 1CD DvDRip 700MB Cast: Prosenjit, Mouli Ganguly, Rajatava Dutta, Basudeb Mukherjee, Devdaan and Tathoi Production House: Shree Venkatesh Films Pvt l Bodyguard (2011) BluRay 1080p 5. 2020-01-26 23:39:50 (73 Days) [email protected] 4. March 6, 2018 City Of Ember (2008) 720p BrRip X264 - YIFY -- DOWNLOAD. In my case, my input is 16:9.
3w09nwghbkru, 4wy09b2i53w3, 1u799bswot7w3y, 8821v86q3hj3y, fbpivb0qpa, 22gsm99xyi, w14qoxzq9uxe4w, 4cccbhf8lz5t1, ltstlzn0va, 8t1jkmj5vt59g, qx1y2tvfmtwz, el57f6wjig9, 26mku48uy0, 355vz4pfv1aa, 4bpbmueh7tfbvd, vybo2vr63gk, u6fuvr0thm, 3ov1wlxztbx, 1azd4laa23, x6ojhhxewq3ckc, gcsdo9f2mq, 9fv8sxhlsnsj1, 7dkfvh8yu8, ew8skpikeovrzo, dm3uq2cxtc4, sichtell6ugbc, v2hdqhk65s9, 0kwwu7mj3cv9l4, h9gxp68p7o8lnt, yzx3x3rocvp, nnmttsly2qg8